Details for this torrent 

Alex S02 E04 - 1080p x264 - SWE (ENG SUBS) [BRSHNKV]

TiD:
4681325
Type:
TV
Size:
877.7 MB
Language:
Swedish
Peers:
last updated 1 week ago
Uploaded:
1 week ago
By:
Sour456Gol
Seeders:
0
Leechers:
0
Downloaded
2

Info Hash:
918CED1E9737B8F8511DB50C467D6E0642C4FDAD

(Problem with magnet links are fixed by upgrading your torrent client!)
				  
Tech:
Format : MPEG-4
Format profile : Base Media / Version 2
Codec ID : mp42
File size : 878 MiB
Duration : 42mn 48s
Overall bit rate mode : Variable
Overall bit rate : 2 867 Kbps
Movie name : Alex S02 E04 - 1080p x264 [BRSHNKV]
Encoded date : UTC 2019-08-11 10:56:27
Tagged date : UTC 2019-08-11 10:56:27
Writing application : HandBrake 1.1.1 2018061800
Video
ID : 1
Format : AVC
Format/Info : Advanced Video Codec
Format profile : [email protected]
Format settings, CABAC : Yes
Format settings, ReFrames : 4 frames
Codec ID : avc1
Codec ID/Info : Advanced Video Coding
Duration : 42mn 48s
Bit rate : 2 700 Kbps
Width : 1 920 pixels
Height : 1 080 pixels
Display aspect ratio : 16:9
Frame rate mode : Constant
Frame rate : 25.000 fps
Color space : YUV
Chroma subsampling : 4:2:0
Bit depth : 8 bits
Scan type : Progressive
Bits/(Pixel*Frame) : 0.052
Stream size : 826 MiB (94%)
Writing library : x264 core 155 r2901 7d0ff22
Encoded date : UTC 2019-08-11 10:56:27
Tagged date : UTC 2019-08-11 10:56:27
Color range : Limited
Color primaries : BT.709
Transfer characteristics : BT.709
Matrix coefficients : BT.709
Audio
ID : 2
Format : AAC
Format/Info : Advanced Audio Codec
Format profile : LC
Codec ID : 40
Duration : 42mn 48s
Bit rate mode : Variable
Bit rate : 161 Kbps
Channel(s) : 2 channels
Channel positions : Front: L R
Sampling rate : 48.0 KHz
Compression mode : Lossy
Stream size : 49.3 MiB (6%)
Title : Stereo / Stereo
Language : Swedish
Encoded date : UTC 2019-08-11 10:56:27
Tagged date : UTC 2019-08-11 10:56:27



https://extraimage.net/images/2019/08/14/50a3973237bbfa0235c03b886060df6e.png

https://extraimage.net/images/2019/08/14/ba06816e62c9a3c091ace7f180ede207.png

https://extraimage.net/images/2019/08/14/244f5ee31bc2131502166056ee800a41.png

https://extraimage.net/images/2019/08/14/1e4b9d3d754d1f4fd84800442ef573b8.png

https://extraimage.net/images/2019/08/14/bb207ca8b3a8ac08f8dafcc36493fbb8.png