Details for this torrent 

Miss Platnum - The Opera (2019) Flac

TiD:
4683653
Type:
Music
Size:
230.1 MB
Language:
English
Files:
16
Trackers:
12
Peers:
last updated 1 week ago
Uploaded:
1 week ago
By:
VCleo
Seeders:
0
Leechers:
0
Downloaded
1

Info Hash:
D51F8D01D71AB1F519E4B334157E1C5AD9B6D565

(Problem with magnet links are fixed by upgrading your torrent client!)
				  
Quality-Lossless
Release-2019
Duration-00:38:01
File Size-241.2 MB
Genre-Pop
Cover Size-1400px
----------------------------------------------------------------------------------------------
Analyzed: The Opera /  Artist: Miss Platnum
----------------------------------------------------------------------------------------------
DR Peak RMS Duration Title [codec]
----------------------------------------------------------------------------------------------
DR10 -3.66 dB -16.25 dB 0:54 01 - Anthem [flac]
DR5 -0.00 dB -10.19 dB 4:05 02 - The Opera [flac]
DR4 -0.00 dB -8.43 dB 3:16 03 - Rainbow Jesus [flac]
DR4 -0.00 dB -9.39 dB 4:03 04 - You Will Shoot [flac]
DR5 -0.00 dB -8.17 dB 3:56 05 - Sparkle [flac]
DR6 -0.00 dB -10.97 dB 7:12 06 - Weapons [flac]
DR4 -0.00 dB -7.57 dB 3:12 07 - Lelele [flac]
DR4 -0.00 dB -9.41 dB 5:16 08 - Runnin' [flac]
DR5 -0.00 dB -10.98 dB 6:04 09 - Fresh Start [flac]
----------------------------------------------------------------------------------------------
Number of files:    9
Official DR value:  DR5
Sampling rate: 44100 Hz
Average bitrate: 849kbs
Bits per sample: 16 bit



https://i.postimg.cc/153Qq1L1/mp-to.jpg