Details for this torrent 

Godzilla King of the Monsters 2019 1080p BluRay x264 DTS [MW]

TiD:
5055893
Type:
Movies
Size:
3.6 GB
Language:
English
Files:
1
Trackers:
12
Peers:
last updated 1 month ago
Uploaded:
1 month ago
By:
ALSubs
Seeders:
0
Leechers:
0
Downloaded
42

Info Hash:
BC4F5DB926EED0AEF627C2EDCDC1FCBE76AB6899

(Problem with magnet links are fixed by upgrading your torrent client!)
				  

General
Format : Matroska
Format version : Version 4
File size : 3.64 GiB
Duration : 2 h 11 min
Overall bit rate : 3 957 kb/s
Video
ID : 1
Format : AVC
Format/Info : Advanced Video Codec
Format profile : [email protected]
Format settings : CABAC / 4 Ref Frames
Format settings, CABAC : Yes
Format settings, Reference frames : 4 frames
Codec ID : V_MPEG4/ISO/AVC
Duration : 2 h 11 min
Bit rate : 3 200 kb/s
Width : 1 920 pixels
Height : 800 pixels
Display aspect ratio : 2.40:1
Frame rate mode : Constant
Frame rate : 23.976 (24000/1001) FPS
Color space : YUV
Chroma subsampling : 4:2:0
Bit depth : 8 bits
Scan type : Progressive
Bits/(Pixel*Frame) : 0.087
Stream size : 2.92 GiB (80%)
Writing library : x264 core 157 r2935 545de2f
Audio
ID : 2
Format : DTS
Format/Info : Digital Theater Systems
Codec ID : A_DTS
Duration : 2 h 11 min
Bit rate mode : Constant
Bit rate : 768 kb/s
Channel(s) : 6 channels
Channel layout : C L R Ls Rs LFE
Sampling rate : 48.0 kHz
Frame rate : 93.750 FPS (512 SPF)
Bit depth : 16 bits
Compression mode : Lossy
Stream size : 724 MiB (19%)
Language : English
Default : Yes
Forced : No
Text #1
ID : 3
Format : VobSub
Muxing mode : zlib
Codec ID : S_VOBSUB
Codec ID/Info : Picture based subtitle format used on DVDs
Duration : 2 h 11 min
Bit rate : 8 334 b/s
Count of elements : 1661
Stream size : 7.83 MiB (0%)
Language : English
Default : Yes
Forced : No
Click To View Image









https://pichub.site/images/2019/08/03/go.md.jpg

https://pichub.site/images/2019/08/18/00_10_43.md.jpg

https://pichub.site/images/2019/08/18/00_14_46.md.jpg

https://pichub.site/images/2019/08/18/00_28_41.md.jpg

https://pichub.site/images/2019/08/18/00_35_09.md.jpg

https://pichub.site/images/2019/08/18/00_46_09.md.jpg

https://pichub.site/images/2019/08/18/01_40_57.md.jpg